[ オンエアリストに戻る ]
TITLE "Heavy Metal Syndicate #919"
FILE "2008-09-21.mp3" WAVE
  TRACK 01 AUDIO
    TITLE "DYNAMIC EXHILARATOR"
    PERFORMER "BILLY SHEEHAN : Holy Cow!"
    INDEX 01 00:00:00

  TRACK 02 AUDIO
    TITLE "FLASH OF THE BLADE"
    PERFORMER "AVENGED SEVENFOLD : Live in the LBC & Diamonds in the Rough (CD)"
    INDEX 01 14:31:53

  TRACK 03 AUDIO
    TITLE "PIECES"
    PERFORMER "HAUNTED : Versus"
    INDEX 01 18:27:33

  TRACK 04 AUDIO
    TITLE "ATLANTIS"
    PERFORMER "TNT : Atlantis"
    INDEX 01 23:27:59

  TRACK 05 AUDIO
    TITLE "NO HERO"
    PERFORMER "D-A-D : Scare Yourself"
    INDEX 01 27:13:20

  TRACK 06 AUDIO
    TITLE "STRAIGHT TO HELL"
    PERFORMER "VENOM : Hell"
    INDEX 01 32:01:16

  TRACK 07 AUDIO
    TITLE "Classic rock: LALENA"
    PERFORMER "DONOVAN : Lalena (single)"
    INDEX 01 53:10:40


SEO [PR] おまとめローン 冷え性対策 坂本龍馬 動画掲示板 レンタルサーバー SEO