[ オンエアリストに戻る ]
TITLE "Heavy Metal Syndicate #918"
FILE "2008-09-14.mp3" WAVE
  TRACK 01 AUDIO
    TITLE "HELLO, HELLO"
    PERFORMER "TNT : Atlantis"
    INDEX 01 00:00:00

  TRACK 02 AUDIO
    TITLE "SHE WOLF"
    PERFORMER "BLESSED BY A BROKEN HEART : Pedal to the Metal"
    INDEX 01 11:19:11

  TRACK 03 AUDIO
    TITLE "DRIFT AWAY"
    PERFORMER "CINDER ROAD : Superhuman"
    INDEX 01 17:13:34

  TRACK 04 AUDIO
    TITLE "URGE (THE GREED OF GAIN)"
    PERFORMER "DESTRUCTION : D.E.V.O.L.U.T.I.O.N."
    INDEX 01 23:02:28

  TRACK 05 AUDIO
    TITLE "MORONIC COLOSSUS"
    PERFORMER "HAUNTED : Versus"
    INDEX 01 27:33:28

  TRACK 06 AUDIO
    TITLE "Introduction: SLEEPING MY DAY AWAY"
    PERFORMER "D-A-D : No Fuel Left for the Pilgrims"
    INDEX 01 31:50:10

  TRACK 07 AUDIO
    TITLE "A GOOD DAY (TO GIVE UP)"
    PERFORMER "D-A-D : Scare Yourself"
    INDEX 01 35:38:46

  TRACK 08 AUDIO
    TITLE "ALL YOU NEED IS BLOOD (JAPANESE)"
    PERFORMER "BEATALLICA : All You Need Is Blood"
    INDEX 01 52:13:22


SEO [PR] おまとめローン 冷え性対策 坂本龍馬 動画掲示板 レンタルサーバー SEO