[ オンエアリストに戻る ]
TITLE "Heavy Metal Syndicate #917"
FILE "2008-09-07.mp3" WAVE
  TRACK 01 AUDIO
    TITLE "THAT WAS JUST YOUR LIFE"
    PERFORMER "METALLICA : Death Magnetic"
    INDEX 01 00:00:00

  TRACK 02 AUDIO
    TITLE "SHOULD'VE KNOWN BETTER"
    PERFORMER "CINDER ROAD : Superhuman"
    INDEX 01 17:16:29

  TRACK 03 AUDIO
    TITLE "END OF THE WORLD"
    PERFORMER "BOB CATLEY : Immortal"
    INDEX 01 22:37:03

  TRACK 04 AUDIO
    TITLE "WISH YOU WERE HERE (Live 2006)"
    PERFORMER "DAVID GILMOUR : Live in Gdansk"
    INDEX 01 29:12:20

  TRACK 05 AUDIO
    TITLE "OVERCOME"
    PERFORMER "ALL THAT REMAINS : Overcome"
    INDEX 01 35:07:28

  TRACK 06 AUDIO
    TITLE "Classic rock: CHINA GROVE"
    PERFORMER "DOOBIE BROTHERS : The Captain and Me (Digitally remastered)"
    INDEX 01 52:35:56


SEO [PR] おまとめローン 冷え性対策 坂本龍馬 動画掲示板 レンタルサーバー SEO