[ オンエアリストに戻る ]
TITLE "Heavy Metal Syndicate #916"
FILE "2008-08-31.mp3" WAVE
  TRACK 01 AUDIO
    TITLE "ROCK N ROLL TRAIN"
    PERFORMER "AC/DC : Black Ice"
    INDEX 01 00:00:00

  TRACK 02 AUDIO
    TITLE "RESCUE ME"
    PERFORMER "BUCKCHERRY : Black Butterfly"
    INDEX 01 18:12:60

  TRACK 03 AUDIO
    TITLE "MY APOCALYPSE"
    PERFORMER "METALLICA : Death Magnetic"
    INDEX 01 22:53:00

  TRACK 04 AUDIO
    TITLE "BIRDS OF PREY"
    PERFORMER "ALMAH : Fragile Equality"
    INDEX 01 29:50:10

  TRACK 05 AUDIO
    TITLE "ENCAGED"
    PERFORMER "SONIC SYNDICATE : Love and Other Disasters"
    INDEX 01 36:14:49

  TRACK 06 AUDIO
    TITLE "Reissue: LIGHTS OUT (Live 1976)"
    PERFORMER "UFO : Lights Out (2008 reissue)"
    INDEX 01 51:04:60


SEO [PR] おまとめローン 冷え性対策 坂本龍馬 動画掲示板 レンタルサーバー SEO