[ オンエアリストに戻る ]
TITLE "Heavy Metal Syndicate #915"
FILE "2008-08-24.mp3" WAVE
  TRACK 01 AUDIO
    TITLE "THE DAY THAT NEVER COMES"
    PERFORMER "METALLICA : Death Magnetic"
    INDEX 01 00:00:00

  TRACK 02 AUDIO
    TITLE "RUNAROUND MAN"
    PERFORMER "MOTORHEAD : Motorizer"
    INDEX 01 16:08:42

  TRACK 03 AUDIO
    TITLE "END OF ALONE"
    PERFORMER "STARBREAKER : Love's Dying Wish"
    INDEX 01 20:56:15

  TRACK 04 AUDIO
    TITLE "IN SACRED FLAMES / BEHOLD THE WICKED CHILD"
    PERFORMER "ICED EARTH : The Crucible of Man - Something Wicked Part 2"
    INDEX 01 26:18:29

  TRACK 05 AUDIO
    TITLE "BEFORE THE DAMNED"
    PERFORMER "ALL THAT REMAINS : Overcome"
    INDEX 01 34:06:22

  TRACK 06 AUDIO
    TITLE "Classic rock: GET READY"
    PERFORMER "BON JOVI : Bon Jovi (Digitally remastered)"
    INDEX 01 52:00:47


SEO [PR] おまとめローン 冷え性対策 坂本龍馬 動画掲示板 レンタルサーバー SEO