[ オンエアリストに戻る ]
TITLE "Heavy Metal Syndicate #914"
FILE "2008-08-17.mp3" WAVE
  TRACK 01 AUDIO
    TITLE "Classic rock: TOO LATE"
    PERFORMER "VANDENBERG : Vandenberg (Digitally remastered)"
    INDEX 01 00:00:00

  TRACK 02 AUDIO
    TITLE "A FLAME FOR FREEDOM"
    PERFORMER "DRAGONFORCE : Ultra Beatdown"
    INDEX 01 11:07:34

  TRACK 03 AUDIO
    TITLE "ROCK OUT"
    PERFORMER "MOTORHEAD : Motorizer"
    INDEX 01 16:10:42

  TRACK 04 AUDIO
    TITLE "BIG NOTHIN'"
    PERFORMER "STEPHEN PEARCY : Under My Skin"
    INDEX 01 20:08:29

  TRACK 05 AUDIO
    TITLE "BENEDICTION"
    PERFORMER "ULI JON ROTH : Under a Dark Sky"
    INDEX 01 23:41:70

  TRACK 06 AUDIO
    TITLE "HOLY SYMPHONY OF WAR"
    PERFORMER "KALMAH : For the Revolution"
    INDEX 01 31:16:61

  TRACK 07 AUDIO
    TITLE "Classic rock: I WANT IT ALL (1997 edit)"
    PERFORMER "QUEEN : The Miracle / Queen Rocks (Digitally remastered)"
    INDEX 01 51:48:27


SEO [PR] おまとめローン 冷え性対策 坂本龍馬 動画掲示板 レンタルサーバー SEO