[ オンエアリストに戻る ]
TITLE "Heavy Metal Syndicate #913"
FILE "2008-08-10.mp3" WAVE
  TRACK 01 AUDIO
    TITLE "RAINBOW EYES"
    PERFORMER "BLACKMORE'S NIGHT : Secret Voyage"
    INDEX 01 00:00:00

  TRACK 02 AUDIO
    TITLE "INSIDE THE WINTER STORM"
    PERFORMER "DRAGONFORCE : Ultra Beatdown"
    INDEX 01 10:01:26

  TRACK 03 AUDIO
    TITLE "TIME IMMEMORIAL"
    PERFORMER "INTO ETERNITY : The Incurable Tragedy"
    INDEX 01 15:32:51

  TRACK 04 AUDIO
    TITLE "ALL YOU NEED IS BLOOD (AMERICAN ENGLISH)"
    PERFORMER "BEATALLICA : All You Need Is Blood"
    INDEX 01 22:40:74

  TRACK 05 AUDIO
    TITLE "ADDICTED"
    PERFORMER "SAVING ABEL : Saving Abel"
    INDEX 01 27:59:45

  TRACK 06 AUDIO
    TITLE "INTROUDER / DIANE"
    PERFORMER "POISONBLACK : A Dead Heavy Day"
    INDEX 01 33:06:65

  TRACK 07 AUDIO
    TITLE "Classic rock: SCHOOL'S OUT"
    PERFORMER "ALICE COOPER : School's Out"
    INDEX 01 52:51:55


SEO [PR] おまとめローン 冷え性対策 坂本龍馬 動画掲示板 レンタルサーバー SEO