[ オンエアリストに戻る ]
TITLE "Heavy Metal Syndicate #912"
FILE "2008-08-03.mp3" WAVE
  TRACK 01 AUDIO
    TITLE "TOO DRUNK..."
    PERFORMER "BUCKCHERRY : Black Butterfly"
    INDEX 01 00:00:00

  TRACK 02 AUDIO
    TITLE "IN GOD'S EYES"
    PERFORMER "SAVING ABEL : Saving Abel"
    INDEX 01 13:05:74

  TRACK 03 AUDIO
    TITLE "TAKE US ALIVE"
    PERFORMER "EXTREME : Saudades de Rock"
    INDEX 01 17:17:13

  TRACK 04 AUDIO
    TITLE "UNITY"
    PERFORMER "DIVINEFIRE : Farewell"
    INDEX 01 22:25:22

  TRACK 05 AUDIO
    TITLE "DIAGNOSIS TERMINAL"
    PERFORMER "INTO ETERNITY : The Incurable Tragedy"
    INDEX 01 26:16:23

  TRACK 06 AUDIO
    TITLE "CAN'T HELP FALLING IN LOVE"
    PERFORMER "BLACKMORE'S NIGHT : Secret Voyage"
    INDEX 01 32:33:74

  TRACK 07 AUDIO
    TITLE "Classic rock: WE CAN WORK IT OUT"
    PERFORMER "DEEP PURPLE : The Book of Taliesyn (Digitally remastered)"
    INDEX 01 52:03:14


SEO [PR] おまとめローン 冷え性対策 坂本龍馬 動画掲示板 レンタルサーバー SEO