[ オンエアリストに戻る ]
TITLE "Heavy Metal Syndicate #911"
FILE "2008-07-27.mp3" WAVE
  TRACK 01 AUDIO
    TITLE "SANDMAN"
    PERFORMER "BEATALLICA : Sgt. Hetfield's Motorbreath Pub Band"
    INDEX 01 00:00:00

  TRACK 02 AUDIO
    TITLE "HEARD IT ON MY RADIO"
    PERFORMER "BROTHER FIRETRIBE : Heart Full of Fire"
    INDEX 01 14:53:63

  TRACK 03 AUDIO
    TITLE "THE FIRE STILL BURNS"
    PERFORMER "DRAGONFORCE : Ultra Beatdown"
    INDEX 01 19:14:00

  TRACK 04 AUDIO
    TITLE "NEW TATTOO"
    PERFORMER "SAVING ABEL : Saving Abel"
    INDEX 01 24:35:38

  TRACK 05 AUDIO
    TITLE "TIDES OF BLOOD"
    PERFORMER "INTO ETERNITY : The Incurable Tragedy"
    INDEX 01 32:15:48

  TRACK 06 AUDIO
    TITLE "Classic rock: TICKET TO RIDE"
    PERFORMER "VANILLA FUDGE : Vanilla Fudge"
    INDEX 01 50:12:58


SEO [PR] おまとめローン 冷え性対策 坂本龍馬 動画掲示板 レンタルサーバー SEO