[ オンエアリストに戻る ]
TITLE "Heavy Metal Syndicate #910"
FILE "2008-07-20.mp3" WAVE
  TRACK 01 AUDIO
    TITLE "GOING HOME"
    PERFORMER "MICHAEL KISKE : Past in Different Ways"
    INDEX 01 00:00:00

  TRACK 02 AUDIO
    TITLE "CONQUEROR"
    PERFORMER "KIUAS : The New Dark Age"
    INDEX 01 13:35:01

  TRACK 03 AUDIO
    TITLE "HELLBOUND (2007 version)"
    PERFORMER "TYGERS OF PAN TANG : Animal Instinct"
    INDEX 01 21:09:55

  TRACK 04 AUDIO
    TITLE "THE SHIP"
    PERFORMER "BACKYARD BABIES : Backyard Babies"
    INDEX 01 25:42:01

  TRACK 05 AUDIO
    TITLE "EVERY STORY TOLD"
    PERFORMER "KIP WINGER : From the Moon to the Sun"
    INDEX 01 32:15:55

  TRACK 06 AUDIO
    TITLE "Classic rock: SUMMERTIME BLUES (Live 1970)"
    PERFORMER "WHO : Live at Leeds (Digitally remastered)"
    INDEX 01 52:54:70


SEO [PR] おまとめローン 冷え性対策 坂本龍馬 動画掲示板 レンタルサーバー SEO