[ オンエアリストに戻る ]
TITLE "Heavy Metal Syndicate #909"
FILE "2008-07-13.mp3" WAVE
  TRACK 01 AUDIO
    TITLE "Classic rock: SHAKE A LEG"
    PERFORMER "AC/DC : Back in Black (Digitally remastered)"
    INDEX 01 00:00:00

  TRACK 02 AUDIO
    TITLE "HEROES OF OUR TIME (Radio edit)"
    PERFORMER "DRAGONFORCE : Ultra Beatdown"
    INDEX 01 14:28:18

  TRACK 03 AUDIO
    TITLE "GLORIOUS AND DIVINE"
    PERFORMER "REVOLUTION RENAISSANCE : New Era (feat. Tobias Sammet)"
    INDEX 01 20:34:48

  TRACK 04 AUDIO
    TITLE "ROCK CANDY"
    PERFORMER "TYGERS OF PAN TANG : Animal Instinct"
    INDEX 01 26:42:51

  TRACK 05 AUDIO
    TITLE "KIUAS WAR ANTHEM"
    PERFORMER "KIUAS : The New Dark Age"
    INDEX 01 33:21:42

  TRACK 06 AUDIO
    TITLE "Classic rock: EVERY LITTLE THING"
    PERFORMER "YES : Yes (Digitally remastered)"
    INDEX 01 50:25:53


SEO [PR] おまとめローン 冷え性対策 坂本龍馬 動画掲示板 レンタルサーバー SEO