[ オンエアリストに戻る ]
TITLE "Heavy Metal Syndicate #908"
FILE "2008-07-06.mp3" WAVE
  TRACK 01 AUDIO
    TITLE "HEROES"
    PERFORMER "REVOLUTION RENAISSANCE : New Era (feat. Tobias Sammet)"
    INDEX 01 00:00:00

  TRACK 02 AUDIO
    TITLE "STAR"
    PERFORMER "EXTREME : Saudades de Rock"
    INDEX 01 12:03:47

  TRACK 03 AUDIO
    TITLE "GHOST"
    PERFORMER "EXTREME : Saudades de Rock"
    INDEX 01 16:14:62

  TRACK 04 AUDIO
    TITLE "GHOSTS"
    PERFORMER "PSYCHICS : The Psychics"
    INDEX 01 22:15:52

  TRACK 05 AUDIO
    TITLE "WHERE WILL YOU GO"
    PERFORMER "KIP WINGER : From the Moon to the Sun"
    INDEX 01 27:01:13

  TRACK 06 AUDIO
    TITLE "HAZE"
    PERFORMER "KORN : Haze (single)"
    INDEX 01 33:30:53

  TRACK 07 AUDIO
    TITLE "Classic rock: FOREVER (Live 1982)"
    PERFORMER "Y&T : Open Fire"
    INDEX 01 49:27:64


SEO [PR] おまとめローン 冷え性対策 坂本龍馬 動画掲示板 レンタルサーバー SEO