[ オンエアリストに戻る ]
TITLE "Heavy Metal Syndicate #907"
FILE "2008-06-29.mp3" WAVE
  TRACK 01 AUDIO
    TITLE "KICKAPOO"
    PERFORMER "TENACIOUS D : The Pick of Destiny (Soundtrack) (feat. Meat Loaf, Ronnie James Dio)"
    INDEX 01 00:00:00

  TRACK 02 AUDIO
    TITLE "IN THE CITY"
    PERFORMER "PSYCHICS : The Psychics"
    INDEX 01 12:06:62

  TRACK 03 AUDIO
    TITLE "MILES FROM NOWHERE"
    PERFORMER "TONY MILLS : Vital Designs"
    INDEX 01 16:47:08

  TRACK 04 AUDIO
    TITLE "IT'S FAR BETTER TO LEARN (Live 2007)"
    PERFORMER "SAOSIN : Come Close (CD)"
    INDEX 01 23:36:02

  TRACK 05 AUDIO
    TITLE "IT'S SO SIMPLE (Live 2007)"
    PERFORMER "SAOSIN : Come Close (CD)"
    INDEX 01 27:27:39

  TRACK 06 AUDIO
    TITLE "3RD MAN INTRODUCTION / PARASITE OF SOCIETY"
    PERFORMER "HEADHUNTER : Parasite of Society"
    INDEX 01 32:48:09

  TRACK 07 AUDIO
    TITLE "Classic rock: IRISH AIR (INSTRUMENTAL REPRISE) / HARBOUR OF TEARS"
    PERFORMER "CAMEL : Harbour of Tears (Digitally remastered)"
    INDEX 01 50:21:55


SEO [PR] おまとめローン 冷え性対策 坂本龍馬 動画掲示板 レンタルサーバー SEO