[ オンエアリストに戻る ]
TITLE "Heavy Metal Syndicate #906"
FILE "2008-06-22.mp3" WAVE
  TRACK 01 AUDIO
    TITLE "PROPHECY"
    PERFORMER "JUDAS PRIEST : Nostradamus"
    INDEX 01 00:00:00

  TRACK 02 AUDIO
    TITLE "RIDE TO THE RAINBOW'S END"
    PERFORMER "FIREWIND : The Premonition"
    INDEX 01 11:49:08

  TRACK 03 AUDIO
    TITLE "LOOK AT THE WORLD"
    PERFORMER "JON OLIVA'S PAIN : Global Warning"
    INDEX 01 16:37:60

  TRACK 04 AUDIO
    TITLE "MALAMBO"
    PERFORMER "KEITH EMERSON BAND featuring MARC BONILLA : Keith Emerson Band featuring Marc Bonilla"
    INDEX 01 22:30:14

  TRACK 05 AUDIO
    TITLE "GAMETIME"
    PERFORMER "KEITH EMERSON BAND featuring MARC BONILLA : Keith Emerson Band featuring Marc Bonilla"
    INDEX 01 28:03:11

  TRACK 06 AUDIO
    TITLE "WORKER'S UNITE"
    PERFORMER "VENOMOUS CONCEPT : Poisoned Apple"
    INDEX 01 32:45:29

  TRACK 07 AUDIO
    TITLE "Classic rock: LIGHT MY FIRE"
    PERFORMER "DOORS : The Doors"
    INDEX 01 48:42:13


SEO [PR] おまとめローン 冷え性対策 坂本龍馬 動画掲示板 レンタルサーバー SEO