[ オンエアリストに戻る ]
TITLE "Heavy Metal Syndicate #905"
FILE "2008-06-15.mp3" WAVE
  TRACK 01 AUDIO
    TITLE "MUTHERFUCKER OF THE YEAR"
    PERFORMER "MOTLEY CRUE : Saints of Los Angeles"
    INDEX 01 00:00:00

  TRACK 02 AUDIO
    TITLE "HERO'S GOLD"
    PERFORMER "ARI KOIVUNEN : Becoming"
    INDEX 01 09:10:33

  TRACK 03 AUDIO
    TITLE "FLIGHT OF THE WARRIOR"
    PERFORMER "HAMMERFALL : Masterpieces"
    INDEX 01 15:07:54

  TRACK 04 AUDIO
    TITLE "WHEN WE PRAY"
    PERFORMER "WARREL DANE : Praises to the War Machine"
    INDEX 01 21:28:70

  TRACK 05 AUDIO
    TITLE "THE WILD HORSE"
    PERFORMER "AKIRA KAJIYAMA & TAKENORI SHIMOYAMA : Into the Deep"
    INDEX 01 25:29:32

  TRACK 06 AUDIO
    TITLE "DROP DEAD"
    PERFORMER "VENOMOUS CONCEPT : Poisoned Apple"
    INDEX 01 32:51:17

  TRACK 07 AUDIO
    TITLE "Classic rock: ROCK MY NIGHTS AWAY (US remix version)"
    PERFORMER "MICHAEL SCHENKER GROUP : Built to Destroy (Digitally remastered)"
    INDEX 01 49:58:16


SEO [PR] おまとめローン 冷え性対策 坂本龍馬 動画掲示板 レンタルサーバー SEO