[ オンエアリストに戻る ]
TITLE "Heavy Metal Syndicate #904"
FILE "2008-06-08.mp3" WAVE
  TRACK 01 AUDIO
    TITLE "MERCENARY MAN"
    PERFORMER "FIREWIND : The Premonition"
    INDEX 01 00:00:00

  TRACK 02 AUDIO
    TITLE "WHITE TRASH CIRCUS"
    PERFORMER "MOTLEY CRUE : Saints of Los Angeles"
    INDEX 01 11:14:11

  TRACK 03 AUDIO
    TITLE "WAR"
    PERFORMER "JUDAS PRIEST : Nostradamus"
    INDEX 01 16:08:42

  TRACK 04 AUDIO
    TITLE "MY DESTINY"
    PERFORMER "AKIRA KAJIYAMA & TAKENORI SHIMOYAMA : Into the Deep"
    INDEX 01 22:22:48

  TRACK 05 AUDIO
    TITLE "THE FINAL JOURNEY"
    PERFORMER "AKIRA KAJIYAMA & TAKENORI SHIMOYAMA : Into the Deep"
    INDEX 01 25:50:50

  TRACK 06 AUDIO
    TITLE "TO TAKE THE BLACK"
    PERFORMER "SWORD : Gods of the Earth"
    INDEX 01 31:54:51

  TRACK 07 AUDIO
    TITLE "MAY - BIRDS IN BLUM"
    PERFORMER "VITALIJ KUPRIJ : 12 Months of the Year"
    INDEX 01 37:25:57

  TRACK 08 AUDIO
    TITLE "Classic rock: IN MY DREAMS"
    PERFORMER "DOKKEN : Under Lock and Key"
    INDEX 01 51:55:65


SEO [PR] おまとめローン 冷え性対策 坂本龍馬 動画掲示板 レンタルサーバー SEO