[ オンエアリストに戻る ]
TITLE "Heavy Metal Syndicate #903"
FILE "2008-06-01.mp3" WAVE
  TRACK 01 AUDIO
    TITLE "CHICKS = TROUBLE"
    PERFORMER "MOTLEY CRUE : Saints of Los Angeles"
    INDEX 01 00:00:00

  TRACK 02 AUDIO
    TITLE "SIGN OF OUR TIMES"
    PERFORMER "ARI KOIVUNEN : Becoming"
    INDEX 01 13:59:37

  TRACK 03 AUDIO
    TITLE "HEAD UP HIGH"
    PERFORMER "FIREWIND : The Premonition"
    INDEX 01 20:38:18

  TRACK 04 AUDIO
    TITLE "HEAVINESS OF THE DUST"
    PERFORMER "AKIRA KAJIYAMA & TAKENORI SHIMOYAMA : Into the Deep"
    INDEX 01 27:09:70

  TRACK 05 AUDIO
    TITLE "DO YOU STILL LOVE ME"
    PERFORMER "BONFIRE : The Rauber"
    INDEX 01 32:59:73

  TRACK 06 AUDIO
    TITLE "PRELUDE IN D, BWV 998"
    PERFORMER "STEVE HACKETT : Tribute"
    INDEX 01 39:38:40

  TRACK 07 AUDIO
    TITLE "Classic rock: TRAVELLIN' IN THE DARK (TO E.M.P.)"
    PERFORMER "MOUNTAIN : Nantucket Sleighride (Digitally remastered)"
    INDEX 01 50:59:71


SEO [PR] おまとめローン 冷え性対策 坂本龍馬 動画掲示板 レンタルサーバー SEO