[ オンエアリストに戻る ]
TITLE "Heavy Metal Syndicate #902"
FILE "2008-05-25.mp3" WAVE
  TRACK 01 AUDIO
    TITLE "L.A.M.F. / FACE DOWN IN THE DIRT"
    PERFORMER "MOTLEY CRUE : Saints of Los Angeles"
    INDEX 01 00:00:00

  TRACK 02 AUDIO
    TITLE "VISIONS"
    PERFORMER "JUDAS PRIEST : Nostradamus"
    INDEX 01 10:48:41

  TRACK 03 AUDIO
    TITLE "ADDING THE COST"
    PERFORMER "JON OLIVA'S PAIN : Global Warning"
    INDEX 01 16:00:15

  TRACK 04 AUDIO
    TITLE "THE SPIRIT OF RADIO (Live 2007)"
    PERFORMER "RUSH : Snakes & Arrows Live"
    INDEX 01 21:10:54

  TRACK 05 AUDIO
    TITLE "MEGALOMANIA (Live 2008)"
    PERFORMER "OUTRAGE : Awakening 2008"
    INDEX 01 27:20:20

  TRACK 06 AUDIO
    TITLE "LORDS"
    PERFORMER "SWORD : Gods of the Earth"
    INDEX 01 33:08:55

  TRACK 07 AUDIO
    TITLE "Classic rock: LOUIS XIV."
    PERFORMER "CHROMING ROSE : Louis XIV."
    INDEX 01 47:24:29


SEO [PR] おまとめローン 冷え性対策 坂本龍馬 動画掲示板 レンタルサーバー SEO