[ オンエアリストに戻る ]
TITLE "Heavy Metal Syndicate #901"
FILE "2008-05-18.mp3" WAVE
  TRACK 01 AUDIO
    TITLE "A FOOLS' CRUSADE"
    PERFORMER "DREAMTIDE : Dream and Deliver"
    INDEX 01 00:00:00

  TRACK 02 AUDIO
    TITLE "LET ME"
    PERFORMER "BLACK TIDE : Light from Above"
    INDEX 01 09:33:25

  TRACK 03 AUDIO
    TITLE "FALLEN ON HARD TIMES"
    PERFORMER "NORTHERN KINGS : Reborn"
    INDEX 01 14:30:63

  TRACK 04 AUDIO
    TITLE "ALRIGHT"
    PERFORMER "KING'S X : XV"
    INDEX 01 21:02:09

  TRACK 05 AUDIO
    TITLE "HOW HEAVY THIS AXE"
    PERFORMER "SWORD : Gods of the Earth"
    INDEX 01 24:54:21

  TRACK 06 AUDIO
    TITLE "JESU JOY BWV 147"
    PERFORMER "STEVE HACKETT : Tribute"
    INDEX 01 30:40:06

  TRACK 07 AUDIO
    TITLE "Classic rock: UNITED NATIONS"
    PERFORMER "KEEL : Keel (feat. Koh Sakai)"
    INDEX 01 52:23:42


SEO [PR] おまとめローン 冷え性対策 坂本龍馬 動画掲示板 レンタルサーバー SEO