[ オンエアリストに戻る ]
TITLE "Heavy Metal Syndicate #900"
FILE "2008-05-11.mp3" WAVE
  TRACK 01 AUDIO
    TITLE "DOWNLOAD A DREAM"
    PERFORMER "DREAMTIDE : Dream and Deliver"
    INDEX 01 00:00:00

  TRACK 02 AUDIO
    TITLE "PERFECT INSANITY"
    PERFORMER "DISTURBED : Indestructible"
    INDEX 01 10:22:16

  TRACK 03 AUDIO
    TITLE "A DEVIL ON MY SHOULDER"
    PERFORMER "NEGATIVE : Karma Killer"
    INDEX 01 15:08:36

  TRACK 04 AUDIO
    TITLE "WELCOME TO THE CIRCUS"
    PERFORMER "SECRET SPHERE : Sweet Blood Theory"
    INDEX 01 21:11:10

  TRACK 05 AUDIO
    TITLE "WAKE THE SLEEPER"
    PERFORMER "URIAH HEEP : Wake the Sleeper"
    INDEX 01 26:52:26

  TRACK 06 AUDIO
    TITLE "A PLACE TO DIE"
    PERFORMER "FIVE FINGER DEATH PUNCH : The Way of the Fist (Cancelled)"
    INDEX 01 32:17:34

  TRACK 07 AUDIO
    TITLE "Congratulations from Paul Gilbert"
    PERFORMER "PAUL GILBERT"
    INDEX 01 37:27:41

  TRACK 08 AUDIO
    TITLE "Classic rock: LET THE MUSIC DO THE TALKING"
    PERFORMER "AEROSMITH : Done with Mirrors (Digitally remastered)"
    INDEX 01 52:41:09


SEO [PR] おまとめローン 冷え性対策 坂本龍馬 動画掲示板 レンタルサーバー SEO