[ オンエアリストに戻る ]
TITLE "Heavy Metal Syndicate #899"
FILE "2008-05-04.mp3" WAVE
  TRACK 01 AUDIO
    TITLE "NOSTRADAMUS"
    PERFORMER "JUDAS PRIEST : Nostradamus"
    INDEX 01 00:00:00

  TRACK 02 AUDIO
    TITLE "SAINTS OF LOS ANGELES (Gang version)"
    PERFORMER "MOTLEY CRUE : Saints of Los Angeles"
    INDEX 01 17:13:37

  TRACK 03 AUDIO
    TITLE "LOVE IS ALL"
    PERFORMER "VIPER : All My Life (feat. Andre Matos)"
    INDEX 01 23:57:29

  TRACK 04 AUDIO
    TITLE "DANGERS OF THE FAITHLESS"
    PERFORMER "TESTAMENT : The Formation of Damnation"
    INDEX 01 29:37:43

  TRACK 05 AUDIO
    TITLE "WON'T LET GO"
    PERFORMER "NEGATIVE : Karma Killer"
    INDEX 01 34:56:13

  TRACK 06 AUDIO
    TITLE "Classic rock: CAN I PLAY WITH MADNESS"
    PERFORMER "IRON MAIDEN : Seventh Son of a Seventh Son / Somewhere Back in Time - The Best of: 1980-1989"
    INDEX 01 51:38:21


SEO [PR] おまとめローン 冷え性対策 坂本龍馬 動画掲示板 レンタルサーバー SEO