[ オンエアリストに戻る ]
TITLE "Heavy Metal Syndicate #898"
FILE "2008-04-27.mp3" WAVE
  TRACK 01 AUDIO
    TITLE "STANDING ON THE OUTSIDE"
    PERFORMER "DOKKEN : Lightning Strikes Again"
    INDEX 01 00:00:00

  TRACK 02 AUDIO
    TITLE "BAD ACTRESS"
    PERFORMER "DEF LEPPARD : Songs from the Sparkle Lounge"
    INDEX 01 09:33:01

  TRACK 03 AUDIO
    TITLE "LOVE"
    PERFORMER "DEF LEPPARD : Songs from the Sparkle Lounge"
    INDEX 01 12:37:02

  TRACK 04 AUDIO
    TITLE "INSIDE THE FIRE"
    PERFORMER "DISTURBED : Indestructible"
    INDEX 01 19:08:01

  TRACK 05 AUDIO
    TITLE "ASHES"
    PERFORMER "FIVE FINGER DEATH PUNCH : The Way of the Fist (Cancelled)"
    INDEX 01 24:11:29

  TRACK 06 AUDIO
    TITLE "ALL MY LIFE"
    PERFORMER "VIPER : All My Life"
    INDEX 01 29:51:20

  TRACK 07 AUDIO
    TITLE "Classic rock: DR. STEIN"
    PERFORMER "HELLOWEEN : Keeper of the Seven Keys Part II (Digitally remastered)"
    INDEX 01 51:04:50


SEO [PR] おまとめローン 冷え性対策 坂本龍馬 動画掲示板 レンタルサーバー SEO