[ オンエアリストに戻る ]
TITLE "Heavy Metal Syndicate #897"
FILE "2008-04-20.mp3" WAVE
  TRACK 01 AUDIO
    TITLE "C'MON C'MON"
    PERFORMER "DEF LEPPARD : Songs from the Sparkle Lounge"
    INDEX 01 00:00:00

  TRACK 02 AUDIO
    TITLE "POINT OF NO RETURN"
    PERFORMER "DOKKEN : Lightning Strikes Again"
    INDEX 01 11:20:52

  TRACK 03 AUDIO
    TITLE "BEST YEARS"
    PERFORMER "WHITESNAKE : Good to Be Bad"
    INDEX 01 15:39:28

  TRACK 04 AUDIO
    TITLE "SHOULD I CALL YOU JUDAS?"
    PERFORMER "OBSESSION : Obsession"
    INDEX 01 20:53:30

  TRACK 05 AUDIO
    TITLE "HEARTS AND MINDS"
    PERFORMER "IVORYLINE : There Came a Lion"
    INDEX 01 24:28:16

  TRACK 06 AUDIO
    TITLE "BREED"
    PERFORMER "OTEP : The Ascension"
    INDEX 01 30:07:13

  TRACK 07 AUDIO
    TITLE "Reissue: THE DYING"
    PERFORMER "AT THE GATES : Slaughter of the Soul (2008 reissue)"
    INDEX 01 34:17:30

  TRACK 08 AUDIO
    TITLE "Classic rock: HELLO THERE (Live 1978)"
    PERFORMER "CHEAP TRICK : Cheap Trick at Budokan - The Complete Concert"
    INDEX 01 52:11:49


SEO [PR] おまとめローン 冷え性対策 坂本龍馬 動画掲示板 レンタルサーバー SEO