[ オンエアリストに戻る ]
TITLE "Heavy Metal Syndicate #896"
FILE "2008-04-13.mp3" WAVE
  TRACK 01 AUDIO
    TITLE "BLACK ABYSS"
    PERFORMER "BLACK TIDE : Light from Above"
    INDEX 01 00:00:00

  TRACK 02 AUDIO
    TITLE "WORKIN' THEM ANGELS (Live 2007)"
    PERFORMER "RUSH : Snakes & Arrows Live"
    INDEX 01 13:29:01

  TRACK 03 AUDIO
    TITLE "GO FASTER (Live 2007)"
    PERFORMER "RICHIE KOTZEN : Bootlegged in Brazil"
    INDEX 01 18:15:01

  TRACK 04 AUDIO
    TITLE "WHEN YOU CLOSE YOUR EYES (Live 2007)"
    PERFORMER "NIGHT RANGER : Rockin' Shibuya 2007"
    INDEX 01 21:05:16

  TRACK 05 AUDIO
    TITLE "REMIND ME I'M ALIVE"
    PERFORMER "IVORYLINE : There Came a Lion"
    INDEX 01 27:27:67

  TRACK 06 AUDIO
    TITLE "EET THE CHILDREN"
    PERFORMER "OTEP : The Ascension"
    INDEX 01 34:08:13

  TRACK 07 AUDIO
    TITLE "Classic rock: LIGHT MY FIRE"
    PERFORMER "JULIE DRISCOLL, BRIAN AUGER & THE TRINITY : Streetnoise"
    INDEX 01 51:51:29


SEO [PR] おまとめローン 冷え性対策 坂本龍馬 動画掲示板 レンタルサーバー SEO