[ オンエアリストに戻る ]
TITLE "Heavy Metal Syndicate #895"
FILE "2008-04-06.mp3" WAVE
  TRACK 01 AUDIO
    TITLE "HUSH (Live 2007)"
    PERFORMER "GOTTHARD : Domino Effect (Tour edition)"
    INDEX 01 00:00:00

  TRACK 02 AUDIO
    TITLE "NEVER AGAIN"
    PERFORMER "ASIA : Phoenix"
    INDEX 01 11:30:12

  TRACK 03 AUDIO
    TITLE "SUMMER RAIN"
    PERFORMER "WHITESNAKE : Good to Be Bad"
    INDEX 01 16:58:41

  TRACK 04 AUDIO
    TITLE "BE STILL AND BREATHE"
    PERFORMER "IVORYLINE : There Came a Lion"
    INDEX 01 22:45:46

  TRACK 05 AUDIO
    TITLE "TEARS OF THE WORLD"
    PERFORMER "URIAH HEEP : Wake the Sleeper"
    INDEX 01 27:38:15

  TRACK 06 AUDIO
    TITLE "SOAP ON THE ROPE"
    PERFORMER "ROOPE LATVALA : Guitar Heroes (Compilation)"
    INDEX 01 33:44:01

  TRACK 07 AUDIO
    TITLE "Classic rock: REACH FOR THE SKY"
    PERFORMER "FIREHOUSE : Hold Your Fire (Digitally remastered)"
    INDEX 01 51:20:23


SEO [PR] おまとめローン 冷え性対策 坂本龍馬 動画掲示板 レンタルサーバー SEO