[ オンエアリストに戻る ]
TITLE "Heavy Metal Syndicate #894"
FILE "2008-03-30.mp3" WAVE
  TRACK 01 AUDIO
    TITLE "NINE LIVES"
    PERFORMER "DEF LEPPARD : Songs from the Sparkle Lounge (feat. Tim McGraw)"
    INDEX 01 00:00:00

  TRACK 02 AUDIO
    TITLE "I WILL"
    PERFORMER "WHITE LION : Return of the Pride"
    INDEX 01 13:54:53

  TRACK 03 AUDIO
    TITLE "TO LIVE FOREVER"
    PERFORMER "DREAM THEATER : Greatest Hit (...And 21 Other Pretty Cool Songs)"
    INDEX 01 18:38:56

  TRACK 04 AUDIO
    TITLE "(I'M) WATCHING YOU"
    PERFORMER "HELLACOPTERS : Head Off"
    INDEX 01 23:36:19

  TRACK 05 AUDIO
    TITLE "SIOUX CITY SARSAPARILLA"
    PERFORMER "ALEXI LAIHO : Guitar Heroes (Compilation)"
    INDEX 01 27:08:49

  TRACK 06 AUDIO
    TITLE "COMBAT FATIGUE"
    PERFORMER "DISMEMBER : Dismember"
    INDEX 01 32:37:69

  TRACK 07 AUDIO
    TITLE "Classic rock: JERUSALEM"
    PERFORMER "EMERSON, LAKE & PALMER : Brain Salad Surgery"
    INDEX 01 49:14:29

  TRACK 08 AUDIO
    TITLE "Classic rock: STILL.... YOU TURN ME ON"
    PERFORMER "EMERSON, LAKE & PALMER : Brain Salad Surgery"
    INDEX 01 52:00:37


SEO [PR] おまとめローン 冷え性対策 坂本龍馬 動画掲示板 レンタルサーバー SEO