[ オンエアリストに戻る ]
TITLE "Heavy Metal Syndicate #893"
FILE "2008-03-23.mp3" WAVE
  TRACK 01 AUDIO
    TITLE "DON'T STOP BELIEVIN'"
    PERFORMER "NORTHERN KINGS : Reborn"
    INDEX 01 00:00:00

  TRACK 02 AUDIO
    TITLE "LIVE YOUR LIFE"
    PERFORMER "WHITE LION : Return of the Pride"
    INDEX 01 15:02:34

  TRACK 03 AUDIO
    TITLE "CALL ON ME"
    PERFORMER "WHITESNAKE : Good to Be Bad"
    INDEX 01 20:04:29

  TRACK 04 AUDIO
    TITLE "ITE, MISSA EST / I WALK ALONE"
    PERFORMER "TARJA : My Winter Storm"
    INDEX 01 26:23:32

  TRACK 05 AUDIO
    TITLE "TRIESTEITALIANA"
    PERFORMER "NOVEMBRE : The Blue"
    INDEX 01 32:53:26

  TRACK 06 AUDIO
    TITLE "Classic rock: I PUT A SPELL ON YOU"
    PERFORMER "CREEDENCE CLEARWATER REVIVAL : Creedence Clearwater Revival"
    INDEX 01 49:33:14


SEO [PR] おまとめローン 冷え性対策 坂本龍馬 動画掲示板 レンタルサーバー SEO