[ オンエアリストに戻る ]
TITLE "Heavy Metal Syndicate #892"
FILE "2008-03-16.mp3" WAVE
  TRACK 01 AUDIO
    TITLE "GOT WHAT YOU NEED"
    PERFORMER "WHITESNAKE : Good to Be Bad"
    INDEX 01 00:00:00

  TRACK 02 AUDIO
    TITLE "SLEEPLESS AGAIN"
    PERFORMER "IN FLAMES : A Sense of Purpose"
    INDEX 01 11:26:24

  TRACK 03 AUDIO
    TITLE "SMILE PRETTY FOR THE DEVIL"
    PERFORMER "CHILDREN OF BODOM : Blooddrunk"
    INDEX 01 15:15:56

  TRACK 04 AUDIO
    TITLE "21ST CENTURY SCHIZOID MAN (Live 1996)"
    PERFORMER "KING CRIMSON : The Collectable King Crimson (Volume Three) - Live at the Shepherds Bush Empire, London, 1996"
    INDEX 01 21:34:71

  TRACK 05 AUDIO
    TITLE "Reissue: (YOU CAN STILL) ROCK IN AMERICA (Live 1983)"
    PERFORMER "NIGHT RANGER : Japan Tour '83"
    INDEX 01 28:00:26

  TRACK 06 AUDIO
    TITLE "HELL ON EARTH"
    PERFORMER "DOMINICI : O3 - A Trilogy - Part 3"
    INDEX 01 34:38:01

  TRACK 07 AUDIO
    TITLE "THE LUCKY ONES"
    PERFORMER "PRIDE TIGER : The Lucky Ones"
    INDEX 01 52:41:05


SEO [PR] おまとめローン 冷え性対策 坂本龍馬 動画掲示板 レンタルサーバー SEO