[ オンエアリストに戻る ]
TITLE "Heavy Metal Syndicate #891"
FILE "2008-03-09.mp3" WAVE
  TRACK 01 AUDIO
    TITLE "DISCONNECTED"
    PERFORMER "IN FLAMES : A Sense of Purpose"
    INDEX 01 00:00:00

  TRACK 02 AUDIO
    TITLE "SHOCKWAVE"
    PERFORMER "BLACK TIDE : Light from Above"
    INDEX 01 13:17:34

  TRACK 03 AUDIO
    TITLE "ALL I WANT ALL I NEED (edit)"
    PERFORMER "WHITESNAKE : Good to Be Bad"
    INDEX 01 19:08:54

  TRACK 04 AUDIO
    TITLE "METSAMIES / 森人類"
    PERFORMER "KORPIKLAANI : Korven Kuningas / 森界の王"
    INDEX 01 26:46:41

  TRACK 05 AUDIO
    TITLE "FACE OF BEAR"
    PERFORMER "HORSE THE BAND : A Natural Death"
    INDEX 01 31:58:49

  TRACK 06 AUDIO
    TITLE "Reissue: ALL OR NOTHING"
    PERFORMER "UFO : No Heavy Petting (2008 reissue)"
    INDEX 01 52:40:14


SEO [PR] おまとめローン 冷え性対策 坂本龍馬 動画掲示板 レンタルサーバー SEO