[ オンエアリストに戻る ]
TITLE "Heavy Metal Syndicate #890"
FILE "2008-03-02.mp3" WAVE
  TRACK 01 AUDIO
    TITLE "THE MIRROR'S TRUTH"
    PERFORMER "IN FLAMES : A Sense of Purpose"
    INDEX 01 00:00:00

  TRACK 02 AUDIO
    TITLE "PALJON ON KOSKESSA KIVIA / 流浪(さすらい)の丸太乗り"
    PERFORMER "KORPIKLAANI : Korven Kuningas / 森界の王"
    INDEX 01 11:59:33

  TRACK 03 AUDIO
    TITLE "LAY DOWN YOUR LOVE"
    PERFORMER "WHITESNAKE : Good to Be Bad"
    INDEX 01 16:40:70

  TRACK 04 AUDIO
    TITLE "GOD'S GOT IT"
    PERFORMER "BLACK CROWES : Warpaint"
    INDEX 01 21:48:19

  TRACK 05 AUDIO
    TITLE "ROADKILL MORNING"
    PERFORMER "CHILDREN OF BODOM : Blooddrunk"
    INDEX 01 25:02:54

  TRACK 06 AUDIO
    TITLE "ARMY OF DARKNESS"
    PERFORMER "OVERDRIVE : Let the Metal Do the Talking"
    INDEX 01 31:08:70

  TRACK 07 AUDIO
    TITLE "Classic rock: ALL OR NOTHING"
    PERFORMER "SMALL FACES : From the Beginning"
    INDEX 01 52:30:50


SEO [PR] おまとめローン 冷え性対策 坂本龍馬 動画掲示板 レンタルサーバー SEO