[ オンエアリストに戻る ]
TITLE "Heavy Metal Syndicate #889"
FILE "2008-02-24.mp3" WAVE
  TRACK 01 AUDIO
    TITLE "ALL FOR LOVE"
    PERFORMER "WHITESNAKE : Good to Be Bad"
    INDEX 01 00:00:00

  TRACK 02 AUDIO
    TITLE "そんなの関係ねえロック"
    PERFORMER "ANDREW W.K. : そんなの関係ねえロック (download single)"
    INDEX 01 08:26:35

  TRACK 03 AUDIO
    TITLE "BLOODDRUNK"
    PERFORMER "CHILDREN OF BODOM : Blooddrunk"
    INDEX 01 14:28:09

  TRACK 04 AUDIO
    TITLE "ELECTROCUTE"
    PERFORMER "HELLACOPTERS : Head Off"
    INDEX 01 20:40:37

  TRACK 05 AUDIO
    TITLE "Reissue: SIXTEEN (demo)"
    PERFORMER "UFO : Phenomenon (2007 reissue)"
    INDEX 01 26:50:71

  TRACK 06 AUDIO
    TITLE "MURDER"
    PERFORMER "HORSE THE BAND : A Natural Death"
    INDEX 01 33:35:29

  TRACK 07 AUDIO
    TITLE "Classic rock: I BELIEVE IN YOU"
    PERFORMER "Y&T : Earthshaker (Digitally remastered)"
    INDEX 01 48:57:11


SEO [PR] おまとめローン 冷え性対策 坂本龍馬 動画掲示板 レンタルサーバー SEO