[ オンエアリストに戻る ]
TITLE "Heavy Metal Syndicate #888"
FILE "2008-02-17.mp3" WAVE
  TRACK 01 AUDIO
    TITLE "HELLHOUNDS ON MY TRAIL"
    PERFORMER "CHILDREN OF BODOM : Blooddrunk"
    INDEX 01 00:00:00

  TRACK 02 AUDIO
    TITLE "ANAEMIA"
    PERFORMER "NOVEMBRE : The Blue"
    INDEX 01 12:31:67

  TRACK 03 AUDIO
    TITLE "HIGH NOON AT THE BATTLEFIELD"
    PERFORMER "ROYAL HUNT : Collision Course - Paradox II"
    INDEX 01 17:14:65

  TRACK 04 AUDIO
    TITLE "AFTERLIFE (Live at the Studio Coast in Tokyo, January 6, 2008)"
    PERFORMER "AVENGED SEVENFOLD : (for Promotional Use Only)"
    INDEX 01 22:47:21

  TRACK 05 AUDIO
    TITLE "THE RHINO (Live at the Tempaku Bunka Shogekijo in Nagoya, January 11, 2008)"
    PERFORMER "PAUL GILBERT : (for Promotional Use Only)"
    INDEX 01 28:40:40

  TRACK 06 AUDIO
    TITLE "VIOLENT EPIPHANY"
    PERFORMER "ICEPICK : Violent Epiphany"
    INDEX 01 33:16:11

  TRACK 07 AUDIO
    TITLE "Classic rock: EDGE OF A BROKEN HEART"
    PERFORMER "VIXEN : Vixen"
    INDEX 01 50:01:74


SEO [PR] おまとめローン 冷え性対策 坂本龍馬 動画掲示板 レンタルサーバー SEO