[ オンエアリストに戻る ]
TITLE "Heavy Metal Syndicate #887"
FILE "2008-02-10.mp3" WAVE
  TRACK 01 AUDIO
    TITLE "I WILL BE WITH YOU (WHERE THE LOST ONES GO)"
    PERFORMER "SARAH BRIGHTMAN : Symphony (feat. Paul Stanley)"
    INDEX 01 00:00:00

  TRACK 02 AUDIO
    TITLE "GOODBYE DAUGHTERS OF THE REVOLUTION"
    PERFORMER "BLACK CROWES : Warpaint"
    INDEX 01 11:28:39

  TRACK 03 AUDIO
    TITLE "HEART OF STONE"
    PERFORMER "HOOCHIE COOCHIE MEN featuring JON LORD : Danger - White Men Dancing (feat. Jimmy Barnes)"
    INDEX 01 17:20:41

  TRACK 04 AUDIO
    TITLE "DROP DEAD!"
    PERFORMER "RAGE : Carved in Stone"
    INDEX 01 22:35:09

  TRACK 05 AUDIO
    TITLE "BITTER TWISTED MEMORY"
    PERFORMER "ICEPICK : Violent Epiphany"
    INDEX 01 28:12:50

  TRACK 06 AUDIO
    TITLE "Classic rock: A LIGHT IN THE BLACK"
    PERFORMER "BLACKMORE'S RAINBOW : Rainbow Rising (SHM-CD)"
    INDEX 01 48:28:33


SEO [PR] おまとめローン 冷え性対策 坂本龍馬 動画掲示板 レンタルサーバー SEO