[ オンエアリストに戻る ]
TITLE "Heavy Metal Syndicate #886"
FILE "2008-02-03.mp3" WAVE
  TRACK 01 AUDIO
    TITLE "CARVED IN STONE"
    PERFORMER "RAGE : Carved in Stone"
    INDEX 01 00:00:00

  TRACK 02 AUDIO
    TITLE "BEAST DENIES"
    PERFORMER "FIGHT : K5 - The War of Words - Demos"
    INDEX 01 13:13:17

  TRACK 03 AUDIO
    TITLE "THE CLAN"
    PERFORMER "ROYAL HUNT : Collision Course - Paradox II"
    INDEX 01 17:24:62

  TRACK 04 AUDIO
    TITLE "OVER & OVER"
    PERFORMER "HOOCHIE COOCHIE MEN featuring JON LORD : Danger - White Men Dancing (feat. Ian Gillan)"
    INDEX 01 25:08:43

  TRACK 05 AUDIO
    TITLE "CAST THE CROWN"
    PERFORMER "THY WILL BE DONE : Was and Is to Come"
    INDEX 01 31:49:74

  TRACK 06 AUDIO
    TITLE "Classic rock: I DON'T WANT TO TALK ABOUT IT"
    PERFORMER "ROD STEWART : Atlantic Crossing (Digitally remastered)"
    INDEX 01 50:03:50


SEO [PR] おまとめローン 冷え性対策 坂本龍馬 動画掲示板 レンタルサーバー SEO