[ オンエアリストに戻る ]
TITLE "Heavy Metal Syndicate #885"
FILE "2008-01-27.mp3" WAVE
  TRACK 01 AUDIO
    TITLE "TO BE WITH YOU"
    PERFORMER "ALLISTER : Guilty Pleasures (EP) (released 2006)"
    INDEX 01 00:00:00

  TRACK 02 AUDIO
    TITLE "PRINCIPLES OF PARADOX / THE FIRST ROCK"
    PERFORMER "ROYAL HUNT : Collision Course - Paradox II"
    INDEX 01 11:01:64

  TRACK 03 AUDIO
    TITLE "Introduction: BON JOVI THE MEDLEY - JERSEY DANCE SYNDICATE / 真冬の大喜利大会"
    PERFORMER "ROCK'N RHYTHM : Bon Jovi the Medley - Jersey Dance Syndicate"
    INDEX 01 21:39:49

  TRACK 04 AUDIO
    TITLE "ALIVE"
    PERFORMER "CIRCUS MAXIMUS : The 1st Chapter"
    INDEX 01 42:41:58

  TRACK 05 AUDIO
    TITLE "Classic rock: WRATHCHILD"
    PERFORMER "IRON MAIDEN : Metal for Muthas (Compilation)"
    INDEX 01 52:50:66


SEO [PR] おまとめローン 冷え性対策 坂本龍馬 動画掲示板 レンタルサーバー SEO