[ オンエアリストに戻る ]
TITLE "Heavy Metal Syndicate #884"
FILE "2008-01-20.mp3" WAVE
  TRACK 01 AUDIO
    TITLE "DEVIL IN THE BELFRY"
    PERFORMER "TOBIAS SAMMET'S AVANTASIA : The Scarecrow (feat. Jorn Lande)"
    INDEX 01 00:00:00

  TRACK 02 AUDIO
    TITLE "MEET YOUR MAKER"
    PERFORMER "METALIUM : Incubus -Chapter Seven-"
    INDEX 01 11:37:44

  TRACK 03 AUDIO
    TITLE "SOLAR ANGELS (Live 1993)"
    PERFORMER "FIGHT : K5 - The War of Words - Demos"
    INDEX 01 17:49:71

  TRACK 04 AUDIO
    TITLE "RATTERS (AMONG THE DEAD)"
    PERFORMER "MEKONG DELTA : Lurking Fear"
    INDEX 01 24:08:65

  TRACK 05 AUDIO
    TITLE "SOUTHERN EXPOSURE"
    PERFORMER "BILL LEVERTY : Southern Exposure"
    INDEX 01 30:49:45

  TRACK 06 AUDIO
    TITLE "Classic rock: WE ALL FALL DOWN"
    PERFORMER "BLUE MURDER : Nothin' but Trouble"
    INDEX 01 51:30:11


SEO [PR] おまとめローン 冷え性対策 坂本龍馬 動画掲示板 レンタルサーバー SEO