[ オンエアリストに戻る ]
TITLE "Heavy Metal Syndicate #883"
FILE "2008-01-13.mp3" WAVE
  TRACK 01 AUDIO
    TITLE "NOW YOU DIE"
    PERFORMER "FIGHT : K5 - The War of Words - Demos"
    INDEX 01 00:00:00

  TRACK 02 AUDIO
    TITLE "ROMANCE IN BLACK"
    PERFORMER "MARKUS GROSSKOPF'S BASSINVADERS : Hellbassbeaters"
    INDEX 01 12:30:29

  TRACK 03 AUDIO
    TITLE "ROYAL LOO"
    PERFORMER "VINDICTIV : Vindictiv"
    INDEX 01 19:34:19

  TRACK 04 AUDIO
    TITLE "JUSTICE IS DESERVED"
    PERFORMER "JADED HEART : Sinister Mind"
    INDEX 01 24:46:05

  TRACK 05 AUDIO
    TITLE "FROZEN ANGEL"
    PERFORMER "NORTHER : N"
    INDEX 01 31:23:53

  TRACK 06 AUDIO
    TITLE "Classic rock: SMOKE ON THE WATER '90"
    PERFORMER "ROCK AID ARMENIA : The Earthquake Album (Compilation)"
    INDEX 01 50:07:42


SEO [PR] おまとめローン 冷え性対策 坂本龍馬 動画掲示板 レンタルサーバー SEO