[ オンエアリストに戻る ]
TITLE "Heavy Metal Syndicate #882"
FILE "2008-01-06.mp3" WAVE
  TRACK 01 AUDIO
    TITLE "SEE THE NIGHT"
    PERFORMER "HELLOWEEN : Gambling with the Devil (Special edition)"
    INDEX 01 00:00:00

  TRACK 02 AUDIO
    TITLE "Introduction: 春の海"
    PERFORMER "箏:宮城道雄 尺八:吉田晴風 : 春の海 (single)"
    INDEX 01 06:49:66

  TRACK 03 AUDIO
    TITLE "SWEET SISTER"
    PERFORMER "HELL N' DIESEL : Passion for Power"
    INDEX 01 13:31:58

  TRACK 04 AUDIO
    TITLE "CASINO BAY"
    PERFORMER "GINGER : Market Harbour"
    INDEX 01 17:43:15

  TRACK 05 AUDIO
    TITLE "MY ANTICHRIST"
    PERFORMER "NORTHER : N"
    INDEX 01 23:22:38

  TRACK 06 AUDIO
    TITLE "NEVER DIE"
    PERFORMER "METALIUM : Incubus -Chapter Seven-"
    INDEX 01 26:58:54

  TRACK 07 AUDIO
    TITLE "I STILL HAVE THAT OTHER GIRL"
    PERFORMER "PAUL GILBERT : Silence Followed by a Deafening Roar"
    INDEX 01 33:29:48

  TRACK 08 AUDIO
    TITLE "Classic rock: CRY FOR THE NATIONS"
    PERFORMER "MICHAEL SCHENKER GROUP : The Michael Schenker Group (Digitally remastered)"
    INDEX 01 51:12:14


SEO [PR] おまとめローン 冷え性対策 坂本龍馬 動画掲示板 レンタルサーバー SEO