[ オンエアリストに戻る ]
TITLE "Heavy Metal Syndicate #881"
FILE "2007-12-30.mp3" WAVE
  TRACK 01 AUDIO
    TITLE "CRITICAL ACCLAIM (Live 2007)"
    PERFORMER "AVENGED SEVENFOLD : Afterlife (single)"
    INDEX 01 00:00:00

  TRACK 02 AUDIO
    TITLE "ANOTHER ANGEL DOWN"
    PERFORMER "TOBIAS SAMMET'S AVANTASIA : The Scarecrow (feat. Jorn Lande)"
    INDEX 01 13:21:28

  TRACK 03 AUDIO
    TITLE "Reissue: 22 ACACIA AVENUE"
    PERFORMER "DARK TRANQUILLITY : The Gallery (2005 reissue)"
    INDEX 01 19:09:01

  TRACK 04 AUDIO
    TITLE "RESURRECTION"
    PERFORMER "METALIUM : Incubus -Chapter Seven-"
    INDEX 01 24:41:26

  TRACK 05 AUDIO
    TITLE "IMMORTAL HATE (ACCEPTING PRAYERS OF SUPREMACY)"
    PERFORMER "MEKONG DELTA : Lurking Fear"
    INDEX 01 31:39:28

  TRACK 06 AUDIO
    TITLE "Classic rock: DAZED AND CONFUSED (Live 1967)"
    PERFORMER "YARDBIRDS : Little Games (2004 reissue)"
    INDEX 01 50:13:40


SEO [PR] おまとめローン 冷え性対策 坂本龍馬 動画掲示板 レンタルサーバー SEO