[ オンエアリストに戻る ]
TITLE "Heavy Metal Syndicate #880"
FILE "2007-12-23.mp3" WAVE
  TRACK 01 AUDIO
    TITLE "LOST HIGHWAY (Live 2007)"
    PERFORMER "BON JOVI : Lost Highway (Japan tour edition)"
    INDEX 01 00:00:00

  TRACK 02 AUDIO
    TITLE "SYNCHRONICITY II"
    PERFORMER "QUEENSRYCHE : Take Cover"
    INDEX 01 16:35:17

  TRACK 03 AUDIO
    TITLE "BOILING BLOOD"
    PERFORMER "MARKUS GROSSKOPF'S BASSINVADERS : Hellbassbeaters"
    INDEX 01 21:40:71

  TRACK 04 AUDIO
    TITLE "EUDAIMONIA OVERTURE"
    PERFORMER "PAUL GILBERT : Silence Followed by a Deafening Roar"
    INDEX 01 28:32:12

  TRACK 05 AUDIO
    TITLE "Reissue: BRINGER OF TORTURE"
    PERFORMER "DARK TRANQUILLITY : The Gallery (2005 reissue)"
    INDEX 01 34:21:31

  TRACK 06 AUDIO
    TITLE "Classic rock: TEASER"
    PERFORMER "TOMMY BOLIN : Teaser"
    INDEX 01 50:22:43


SEO [PR] おまとめローン 冷え性対策 坂本龍馬 動画掲示板 レンタルサーバー SEO