[ オンエアリストに戻る ]
TITLE "Heavy Metal Syndicate #879"
FILE "2007-12-16.mp3" WAVE
  TRACK 01 AUDIO
    TITLE "EAGLE FLY FREE"
    PERFORMER "MARKUS GROSSKOPF'S BASSINVADERS : Hellbassbeaters"
    INDEX 01 00:00:00

  TRACK 02 AUDIO
    TITLE "HALLELUJAH (Live 2007)"
    PERFORMER "BON JOVI : Lost Highway (Japan tour edition)"
    INDEX 01 16:49:25

  TRACK 03 AUDIO
    TITLE "RAINBOW SKY"
    PERFORMER "LAST AUTUMN'S DREAM : Hunting Shadows"
    INDEX 01 24:13:71

  TRACK 04 AUDIO
    TITLE "THE GARGOYLE"
    PERFORMER "PAUL GILBERT : Silence Followed by a Deafening Roar"
    INDEX 01 33:57:65

  TRACK 05 AUDIO
    TITLE "Classic rock: FOR THOSE ABOUT TO ROCK (WE SALUTE YOU)"
    PERFORMER "AC/DC : For Those About to Rock We Salute You (Digitally remastered)"
    INDEX 01 50:06:63


SEO [PR] おまとめローン 冷え性対策 坂本龍馬 動画掲示板 レンタルサーバー SEO