[ オンエアリストに戻る ]
TITLE "Heavy Metal Syndicate #878"
FILE "2007-12-09.mp3" WAVE
  TRACK 01 AUDIO
    TITLE "WELCOME TO THE MACHINE"
    PERFORMER "QUEENSRYCHE : Take Cover"
    INDEX 01 00:00:00

  TRACK 02 AUDIO
    TITLE "MY ALIBI"
    PERFORMER "LAST AUTUMN'S DREAM : Hunting Shadows"
    INDEX 01 09:46:45

  TRACK 03 AUDIO
    TITLE "TOMORROW"
    PERFORMER "SIXX: A.M. : The Heroin Diaries Soundtrack"
    INDEX 01 14:56:08

  TRACK 04 AUDIO
    TITLE "SIEGE ON ZELGIAN"
    PERFORMER "MAGICIAN : Tales of the Magician"
    INDEX 01 20:51:13

  TRACK 05 AUDIO
    TITLE "RAISE YOUR HANDS"
    PERFORMER "CODEX : The Codex"
    INDEX 01 26:02:66

  TRACK 06 AUDIO
    TITLE "DULL BOY"
    PERFORMER "MUDVAYNE : By the People, For the People"
    INDEX 01 33:08:51

  TRACK 07 AUDIO
    TITLE "Classic rock: BACK ON THE STREETS"
    PERFORMER "GARY MOORE : Back on the Streets (Digitally remastered)"
    INDEX 01 51:22:09


SEO [PR] おまとめローン 冷え性対策 坂本龍馬 動画掲示板 レンタルサーバー SEO