[ オンエアリストに戻る ]
TITLE "Heavy Metal Syndicate #877"
FILE "2007-12-02.mp3" WAVE
  TRACK 01 AUDIO
    TITLE "NEON KNIGHTS"
    PERFORMER "QUEENSRYCHE : Take Cover"
    INDEX 01 00:00:00

  TRACK 02 AUDIO
    TITLE "BEYOND THE DARK"
    PERFORMER "CODEX : The Codex"
    INDEX 01 12:18:38

  TRACK 03 AUDIO
    TITLE "PRIME EVIL"
    PERFORMER "MAGICIAN : Tales of the Magician"
    INDEX 01 19:06:50

  TRACK 04 AUDIO
    TITLE "DANCE WITH THE RAIN"
    PERFORMER "NEW TROLLS : Concerto Grosso - The Seven Seasons"
    INDEX 01 26:42:22

  TRACK 05 AUDIO
    TITLE "Introduction: BON JOVI THE MEDLEY - JERSEY DANCE SYNDICATE / 真冬の大喜利大会 (問題発表)"
    PERFORMER "ROCK'N RHYTHM : Bon Jovi the Medley - Jersey Dance Syndicate"
    INDEX 01 32:35:59

  TRACK 06 AUDIO
    TITLE "Classic rock: OVERNIGHT SENSATION"
    PERFORMER "FIREHOUSE : FireHouse"
    INDEX 01 52:08:29


SEO [PR] おまとめローン 冷え性対策 坂本龍馬 動画掲示板 レンタルサーバー SEO