[ オンエアリストに戻る ]
TITLE "Heavy Metal Syndicate #876"
FILE "2007-11-25.mp3" WAVE
  TRACK 01 AUDIO
    TITLE "BACK IN THE SADDLE"
    PERFORMER "SEBASTIAN BACH : Angel Down (feat. Axl Rose)"
    INDEX 01 00:00:00

  TRACK 02 AUDIO
    TITLE "TOXIC KISS"
    PERFORMER "CODEX : The Codex"
    INDEX 01 14:59:09

  TRACK 03 AUDIO
    TITLE "ACCIDENTS CAN HAPPEN"
    PERFORMER "SIXX: A.M. : The Heroin Diaries Soundtrack"
    INDEX 01 20:11:59

  TRACK 04 AUDIO
    TITLE "MASTERS OF WAR"
    PERFORMER "MOUNTAIN : Masters of War (feat. Ozzy Osbourne)"
    INDEX 01 29:38:19

  TRACK 05 AUDIO
    TITLE "WAITING FOR AN ALIBI (Live at the Liquidroom in Tokyo, January 23, 2007)"
    PERFORMER "PAUL GILBERT : (for Promotional Use Only)"
    INDEX 01 35:19:11

  TRACK 06 AUDIO
    TITLE "Classic rock: BLACK SHEEP OF THE FAMILY"
    PERFORMER "QUATERMASS : Quatermass"
    INDEX 01 50:24:11


SEO [PR] おまとめローン 冷え性対策 坂本龍馬 動画掲示板 レンタルサーバー SEO