[ オンエアリストに戻る ]
TITLE "Heavy Metal Syndicate #875"
FILE "2007-11-18.mp3" WAVE
  TRACK 01 AUDIO
    TITLE "RAIN"
    PERFORMER "GAMMA RAY : Land of the Free II"
    INDEX 01 00:00:00

  TRACK 02 AUDIO
    TITLE "MERRY GO ROUND"
    PERFORMER "PUDDLE OF MUDD : Famous"
    INDEX 01 10:50:34

  TRACK 03 AUDIO
    TITLE "(LOVE IS) A BITCHSLAP (George Marino Master)"
    PERFORMER "SEBASTIAN BACH : Angel Down (feat. Axl Rose)"
    INDEX 01 14:29:55

  TRACK 04 AUDIO
    TITLE "I KNOW IT'S TIME"
    PERFORMER "GARY HUGHES : Veritas"
    INDEX 01 19:06:51

  TRACK 05 AUDIO
    TITLE "WHORE"
    PERFORMER "REVENGIA : Eraser"
    INDEX 01 25:10:55

  TRACK 06 AUDIO
    TITLE "Classic rock: ROCK AND ROLL (Live 1973)"
    PERFORMER "LED ZEPPELIN : The Song Remains the Same (2007 reissue)"
    INDEX 01 47:21:03

  TRACK 07 AUDIO
    TITLE "Classic rock: CELEBRATION DAY (Live 1973)"
    PERFORMER "LED ZEPPELIN : The Song Remains the Same (2007 reissue)"
    INDEX 01 51:10:50


SEO [PR] おまとめローン 冷え性対策 坂本龍馬 動画掲示板 レンタルサーバー SEO