[ オンエアリストに戻る ]
TITLE "Heavy Metal Syndicate #874"
FILE "2007-11-11.mp3" WAVE
  TRACK 01 AUDIO
    TITLE "NEGATIVE LIGHT"
    PERFORMER "SEBASTIAN BACH : Angel Down"
    INDEX 01 00:00:00

  TRACK 02 AUDIO
    TITLE "PRAY FOR ME"
    PERFORMER "SIXX: A.M. : The Heroin Diaries Soundtrack"
    INDEX 01 12:55:22

  TRACK 03 AUDIO
    TITLE "VERITAS"
    PERFORMER "GARY HUGHES : Veritas"
    INDEX 01 17:31:06

  TRACK 04 AUDIO
    TITLE "DOG EAT DOG (Live 1978)"
    PERFORMER "AC/DC : Plug Me In"
    INDEX 01 23:48:04

  TRACK 05 AUDIO
    TITLE "Reissue: THE OCEAN (Live 1973)"
    PERFORMER "LED ZEPPELIN : The Song Remains the Same (2007 reissue)"
    INDEX 01 28:11:15

  TRACK 06 AUDIO
    TITLE "AS IT WAS, AS IT SOON SHALL BE"
    PERFORMER "EXODUS : The Atrocity Exhibition - Exhibit A"
    INDEX 01 33:25:25

  TRACK 07 AUDIO
    TITLE "Classic rock: REACH OUT (NEVER SAY NO)"
    PERFORMER "GTR : GTR (Digitally remastered)"
    INDEX 01 51:59:54


SEO [PR] おまとめローン 冷え性対策 坂本龍馬 動画掲示板 レンタルサーバー SEO