[ オンエアリストに戻る ]
TITLE "Heavy Metal Syndicate #873"
FILE "2007-11-04.mp3" WAVE
  TRACK 01 AUDIO
    TITLE "Reissue: BLACK DOG (intro: Bring It on Home) (Live 1973)"
    PERFORMER "LED ZEPPELIN : The Song Remains the Same (2007 reissue)"
    INDEX 01 00:00:00

  TRACK 02 AUDIO
    TITLE "CAPTURE THE SUN"
    PERFORMER "LANA LANE : Red Planet Boulevard"
    INDEX 01 09:43:39

  TRACK 03 AUDIO
    TITLE "MEDICATE ME"
    PERFORMER "HARDCORE SUPERSTAR : Dreamin' in a Casket"
    INDEX 01 14:39:03

  TRACK 04 AUDIO
    TITLE "MADALAINE (Live 2007)"
    PERFORMER "WINGER : Winger Live"
    INDEX 01 20:13:06

  TRACK 05 AUDIO
    TITLE "ERASER"
    PERFORMER "REVENGIA : Eraser"
    INDEX 01 26:51:19

  TRACK 06 AUDIO
    TITLE "Classic rock: LET ME ENTERTAIN YOU (Live 1981)"
    PERFORMER "QUEEN : Queen Rock Montreal"
    INDEX 01 51:56:27


SEO [PR] おまとめローン 冷え性対策 坂本龍馬 動画掲示板 レンタルサーバー SEO