[ オンエアリストに戻る ]
TITLE "Heavy Metal Syndicate #872"
FILE "2007-10-28.mp3" WAVE
  TRACK 01 AUDIO
    TITLE "RISING AGAIN / TO MOTHER EARTH"
    PERFORMER "GAMMA RAY : Land of the Free II"
    INDEX 01 00:00:00

  TRACK 02 AUDIO
    TITLE "BACK IN BLACK (Live 1991)"
    PERFORMER "AC/DC : Plug Me In"
    INDEX 01 12:14:34

  TRACK 03 AUDIO
    TITLE "SKIN O' MY TEETH (Live 2005)"
    PERFORMER "MEGADETH : That One Night - Live in Buenos Aires (CD)"
    INDEX 01 16:17:39

  TRACK 04 AUDIO
    TITLE "FAMOUS"
    PERFORMER "PUDDLE OF MUDD : Famous"
    INDEX 01 20:59:41

  TRACK 05 AUDIO
    TITLE "LOST"
    PERFORMER "AVENGED SEVENFOLD : Avenged Sevenfold"
    INDEX 01 25:02:74

  TRACK 06 AUDIO
    TITLE "CALL TO ARMS / RIOT ACT"
    PERFORMER "EXODUS : The Atrocity Exhibition - Exhibit A"
    INDEX 01 31:44:09

  TRACK 07 AUDIO
    TITLE "Classic rock: HELLRAISER (Intro: The Stripper) (Live 1973)"
    PERFORMER "SWEET : Strung Up"
    INDEX 01 52:02:16


SEO [PR] おまとめローン 冷え性対策 坂本龍馬 動画掲示板 レンタルサーバー SEO