[ オンエアリストに戻る ]
TITLE "Heavy Metal Syndicate #871"
FILE "2007-10-21.mp3" WAVE
  TRACK 01 AUDIO
    TITLE "INTO THE STORM"
    PERFORMER "GAMMA RAY : Land of the Free II"
    INDEX 01 00:00:00

  TRACK 02 AUDIO
    TITLE "WRATH OF THE RIPPER"
    PERFORMER "STEVE GRIMMETT : Personal Crisis"
    INDEX 01 09:19:18

  TRACK 03 AUDIO
    TITLE "TRASHED AND SCATTERED (Live 2006)"
    PERFORMER "AVENGED SEVENFOLD : All Excess"
    INDEX 01 13:57:44

  TRACK 04 AUDIO
    TITLE "JUSTICE IN MURDER"
    PERFORMER "COHEED AND CAMBRIA : No World for Tomorrow"
    INDEX 01 19:59:42

  TRACK 05 AUDIO
    TITLE "WAKE UP DEAD IN A GARBAGECAN"
    PERFORMER "HARDCORE SUPERSTAR : Dreamin' in a Casket"
    INDEX 01 24:57:40

  TRACK 06 AUDIO
    TITLE "ABYSS"
    PERFORMER "CIRCUS MAXIMUS : Isolate"
    INDEX 01 31:07:39

  TRACK 07 AUDIO
    TITLE "Classic rock: WHEN YOU CLOSE YOUR EYES"
    PERFORMER "NIGHT RANGER : Midnight Madness (Digitally remastered)"
    INDEX 01 51:37:13


SEO [PR] おまとめローン 冷え性対策 坂本龍馬 動画掲示板 レンタルサーバー SEO