[ オンエアリストに戻る ]
TITLE "Heavy Metal Syndicate #870"
FILE "2007-10-14.mp3" WAVE
  TRACK 01 AUDIO
    TITLE "CAN DO IT"
    PERFORMER "HELLOWEEN : Gambling with the Devil"
    INDEX 01 00:00:00

  TRACK 02 AUDIO
    TITLE "THE GATES OF LIGHT"
    PERFORMER "ASTRAL DOORS : New Revelation"
    INDEX 01 13:33:19

  TRACK 03 AUDIO
    TITLE "HYPERDRIVE"
    PERFORMER "DEVIN TOWNSEND : Ziltoid the Omniscient"
    INDEX 01 19:01:11

  TRACK 04 AUDIO
    TITLE "ANGELS ARE CALLING"
    PERFORMER "ARI KOIVUNEN : Fuel for the Fire"
    INDEX 01 24:46:44

  TRACK 05 AUDIO
    TITLE "BEFORE BATTLE I EMBRACE"
    PERFORMER "FOLKEARTH : Drakkars in the Mist"
    INDEX 01 33:36:74

  TRACK 06 AUDIO
    TITLE "Classic rock: BABE I'M GONNA LEAVE YOU"
    PERFORMER "LED ZEPPELIN : Led Zeppelin / Mothership"
    INDEX 01 49:50:74


SEO [PR] おまとめローン 冷え性対策 坂本龍馬 動画掲示板 レンタルサーバー SEO